• 06. На Мокром Шоссе (4:35)

    07. Смогу Ли Я? (4:50)

    08. Одиночество (2:51)

    09. Потревожили Вы (2:36)

    Exact Audio Copy V1.0 beta 3 from 29. August 2011

    Отчёт EAC об извлечении, выполненном 25. августа 2013, 22:31

    Ефрем Амирамов / Неприкосновенный Запас

    Дисковод: PLEXTOR DVDR PX-712A Adapter: 0 ID: 0

    Режим чтения. Достоверность

    Использование точного потока. Да

    Отключение кэша аудио. Да

    Использование указателей C2. Нет

    Коррекция смещения при чтении. 30

    Трек | Старт | Длительность | Начальный сектор | Конечный сектор

    1 | 0:00.00 | 3:19.02 | 0 | 14926

    2 | 3:19.02 | 4:25.65 | 14927 | 34866

    3 | 7:44.67 | 2:51.33 | 34867 | 47724

    4 | 10:36.25 | 3:23.00 | 47725 | 62949

    5 | 13:59.25 | 2:59.57 | 62950 | 76431

    6 | 16:59.07 | 4:34.68 | 76432 | 97049

    7 | 21:34.00 | 4:50.07 | 97050 | 118806

    8 | 26:24.07 | 2:50.48 | 118807 | 131604

    9 | 29:14.55 | 2:35.52 | 131605 | 143281

    10 | 31:50.32 | 5:00.23 | 143282 | 165804

    11 | 36:50.55 | 5:06.10 | 165805 | 188764

    12 | 41:56.65 | 2:18.55 | 188765 | 199169

    13 | 44:15.45 | 2:29.32 | 199170 | 210376

    14 | 46:45.02 | 3:36.55 | 210377 | 226631

    15 | 50:21.57 | 4:36.03 | 226632 | 247334

    16 | 54:57.60 | 4:51.60 | 247335 | 269219

    Имя файла D:\музыка\flacmusic. ru-Rip by moote\Ефрем Амирамов\Ефрем Амирамов - Неприкосновенный Запас. wav

    Пиковый уровень 98.1 %

    Скорость извлечения 3.5 X

    Качество диапазона 99.9 %

    AccurateRip: сводка

    Трек 1 отсутствует в базе данных

    Трек 2 отсутствует в базе данных

    Трек 3 отсутствует в базе данных

    Трек 4 отсутствует в базе данных

    Трек 5 отсутствует в базе данных

    Трек 6 отсутствует в базе данных

    Трек 7 отсутствует в базе данных

    Трек 8 отсутствует в базе данных

    Трек 9 отсутствует в базе данных

    Трек 10 отсутствует в базе данных

    Трек 11 отсутствует в базе данных

    Трек 12 отсутствует в базе данных

    Трек 13 отсутствует в базе данных

    ==== Контрольная сумма отчёта 7C587D8812730D068104506FD6558E1D58FAE37BDEB8698C55D396AEA475CC95 ====